Indonesian Homemade First Love – Cinta Pertama


Download Indonesian Homemade First Love – Cinta Pertama

Update Lokalan lagi gan πŸ˜€

Indonesian Homemade First Love - Cinta Pertama
Indonesian Homemade First Love – Cinta Pertama

Video
ID : 1
Format : AVC
Format/Info : Advanced Video Codec
Format profile : Main@L3.1
Format settings, CABAC : Yes
Format settings, ReFrames : 4 frames
Codec ID : avc1
Codec ID/Info : Advanced Video Coding
Duration : 29 min 14 s
Bit rate : 161 kb/s
Width : 420 pixels
Height : 280 pixels
Display aspect ratio : 3:2
Frame rate mode : Constant
Frame rate : 22.000 FPS
Color space : YUV
Chroma subsampling : 4:2:0
Bit depth : 8 bits
Scan type : Progressive
Bits/(Pixel*Frame) : 0.062
Stream size : 33.8 MiB (82%)
Writing library : x264 core 140 r2377 1ca7bb9
Encoding settings : cabac=1 / ref=3 / deblock=1:0:0 / analyse=0x1:0x111 / me=hex / subme=7 / psy=1 / psy_rd=1.00:0.00 / mixed_ref=1 / me_range=16 / chroma_me=1 / trellis=1 / 8x8dct=0 / cqm=0 / deadzone=21,11 / fast_pskip=1 / chroma_qp_offset=-2 / threads=48 / lookahead_threads=2 / sliced_threads=0 / nr=0 / decimate=1 / interlaced=0 / bluray_compat=0 / constrained_intra=0 / bframes=3 / b_pyramid=2 / b_adapt=1 / b_bias=0 / direct=1 / weightb=1 / open_gop=0 / weightp=2 / keyint=250 / keyint_min=22 / scenecut=40 / intra_refresh=0 / rc_lookahead=40 / rc=crf / mbtree=1 / crf=26.0 / qcomp=0.60 / qpmin=0 / qpmax=69 / qpstep=4 / ip_ratio=1.40 / aq=1:1.00

Audio
ID : 2
Format : AAC
Format/Info : Advanced Audio Codec
Format profile : LC
Codec ID : 40
Duration : 29 min 14 s
Duration_LastFrame : -26 ms
Bit rate mode : Constant
Bit rate : 32.0 kb/s
Channel(s) : 2 channels
Channel(s)_Original : 1 channel
Channel positions : Front: C
Sampling rate : 22.05 kHz
Frame rate : 21.533 FPS (1024 spf)
Compression mode : Lossy
Stream size : 6.69 MiB (16%)
Default : Yes
Alternate group : 1

Screenshot Indonesian Homemade First Love – Cinta Pertama

Indonesian Homemade First Love - Cinta Pertama
Indonesian Homemade First Love – Cinta Pertama

Download Indonesian Homemade First Love – Cinta Pertama

Indonesian Homemade First Love – Cinta Pertama [SQ = 26,4 MB]
OPENLOAD (STREAMING)KBAGIUSERSCLOUDDAILYUPLOADSGOOGLE DRIVE
Indonesian Homemade First Love – Cinta Pertama [HQ = 41,3 MB]
OPENLOAD (STREAMING)KBAGIUSERSCLOUDDAILYUPLOADSGOOGLE DRIVE